<?xml version="1.0" standalone="no"?>
<!DOCTYPE svg PUBLIC "-//W3C//DTD SVG 1.1//EN" "http://www.w3.org/Graphics/SVG/1.1/DTD/svg11.dtd" >
<svg xmlns="http://www.w3.org/2000/svg">
<metadata>Generated by IcoMoon</metadata>
<defs>
<font id="icomoon" horiz-adv-x="1024">
<font-face units-per-em="1024" ascent="960" descent="-64" />
<missing-glyph horiz-adv-x="1024" />
<glyph unicode="&#x20;" horiz-adv-x="512" d="" />
<glyph unicode="&#xe900;" glyph-name="Logoutttt" horiz-adv-x="1113" d="M180.465 815.163c160.72 161.85 404.965 188.010 592.691 78.699 12.061-7.517 20.743-19.472 24.206-33.329 3.459-13.857 1.425-28.527-5.668-40.899-7.097-12.372-18.699-21.475-32.341-25.377-13.646-3.902-28.262-2.298-40.755 4.474-58.056 33.704-123.9 51.426-190.905 51.385-67.010-0.041-132.831-17.843-190.849-51.618s-106.193-82.334-139.686-140.8c-33.493-58.466-51.125-124.782-51.125-192.285s17.632-133.819 51.125-192.285c33.493-58.466 81.668-107.026 139.686-140.8s123.839-51.578 190.849-51.619c67.005-0.040 132.848 17.684 190.905 51.387 12.493 6.772 27.109 8.375 40.755 4.474 13.641-3.905 25.244-13.005 32.341-25.377 7.092-12.373 9.127-27.043 5.668-40.902-3.464-13.855-12.146-25.809-24.206-33.329-187.726-109.363-431.97-83.202-592.691 78.701-45.594 45.929-81.762 100.454-106.437 160.465s-37.376 124.331-37.376 189.284c0 64.955 12.7 129.274 37.376 189.285s60.843 114.537 106.437 160.466zM870.974 669.141c10.231 10.303 24.104 16.091 38.569 16.091s28.343-5.788 38.574-16.091l103.161-103.924c9.768-9.838 19.26-19.345 26.624-28.139 8.076-9.618 16.803-21.763 21.931-37.7 7.119-22.074 7.119-45.853 0-67.927-4.75-13.926-12.208-26.762-21.931-37.759-8.513-9.701-17.395-19.069-26.624-28.084l-103.108-103.923c-10.231-10.311-24.109-16.108-38.578-16.112-14.474-0.004-28.356 5.779-38.591 16.086-10.236 10.302-15.992 24.282-15.997 38.863-0.004 14.576 5.739 28.561 15.97 38.872l70.54 71.061h-413.861c-14.465 0-28.343 5.792-38.574 16.099s-15.979 24.282-15.979 38.859c0 14.576 5.748 28.556 15.979 38.863s24.109 16.095 38.574 16.095h413.861l-70.54 71.060c-10.227 10.306-15.974 24.283-15.974 38.855s5.748 28.549 15.974 38.855z" />
<glyph unicode="&#xe901;" glyph-name="money-bag-Icon" horiz-adv-x="768" d="M384 660.765c-216.287 0-384-238.183-384-443.076 0-238.298 219.174-265.846 384-265.846s384 27.546 384 265.846c0 204.893-167.712 443.076-384 443.076zM414.346 163.949c-0.266-0.096-0.541-0.051-0.806-0.144v-34.73c0-16.326-13.213-29.536-29.539-29.536s-29.539 13.21-29.539 29.536v34.934c-19.472 6.57-38.124 19.037-54.055 38.019-10.499 12.49-8.884 31.123 3.635 41.626 12.462 10.499 31.096 8.912 41.598-3.606 58.24-69.562 97.552 36.72 38.365 36.72-48.864 0-88.617 39.754-88.617 88.618 0 35.344 20.236 69.050 59.077 82.874v35.28c0 16.33 13.213 29.539 29.539 29.539s29.536-13.213 29.536-29.539v-35.376c15.293-5.152 30.205-13.338 43.501-26.208 11.712-11.366 12.058-30.061 0.694-41.77-11.363-11.744-30.058-12.058-41.77-0.694-54.339 52.49-91.040-43.645-31.962-43.645 48.864 0 88.618-39.75 88.618-88.614-0.006-37.101-23.43-70.592-58.275-83.283zM552.461 936.203c-109.040 31.729-227.885 31.729-336.924 0-18.297-5.295-27.031-26.539-17.192-43.327l44.678-79.983c77.687 30.912 192.916 35.528 281.943-0.014l44.685 79.997c9.84 16.788 1.104 38.030-17.19 43.327zM521.149 748.512c-55.267 38.936-217.392 40.561-274.64-0.181-24.544-17.326-37.611-44.546-37.357-72.981 56.721 30.048 123.226 44.491 174.849 44.491 62.874 0 121.77-16.371 174.851-44.491 0.246 27.396-11.93 54.988-37.702 73.163z" />
<glyph unicode="&#xe902;" glyph-name="monitorrr" horiz-adv-x="1170" d="M0 810.312v-544.321c0-39.697 15.771-77.77 43.843-105.843s66.145-43.842 105.845-43.842h314.943l-40.824-81.647h-110.824c-10.827 0-21.21-4.306-28.867-11.961s-11.957-18.037-11.957-28.867c0-10.825 4.301-21.207 11.957-28.867 7.656-7.656 18.039-11.956 28.867-11.956h544.319c10.825 0 21.211 4.301 28.867 11.956 7.656 7.66 11.956 18.042 11.956 28.867 0 10.83-4.301 21.211-11.956 28.867s-18.042 11.961-28.867 11.961h-110.88l-40.823 81.647h314.997c39.702 0 77.775 15.77 105.847 43.842s43.842 66.146 43.842 105.843v544.321c0 39.7-15.77 77.773-43.842 105.845s-66.146 43.843-105.847 43.843h-870.909c-39.7 0-77.773-15.771-105.845-43.843s-43.843-66.145-43.843-105.845zM1020.596 197.954h-870.909c-37.558 0-68.040 30.481-68.040 68.037v544.321c0 37.558 30.482 68.040 68.040 68.040h870.909c37.561 0 68.042-30.482 68.042-68.040v-544.321c0-37.556-30.481-68.037-68.042-68.037z" />
<glyph unicode="&#xe903;" glyph-name="Profileee" horiz-adv-x="878" d="M438.843 485.036c-148.92 0-270.075 106.54-270.075 237.496 0 130.942 121.158 237.468 270.075 237.468 148.937 0 270.106-106.528 270.106-237.468 0-130.956-121.168-237.496-270.106-237.496zM438.843 883.497c-100.944 0-183.068-72.21-183.068-160.965 0-88.772 82.124-160.992 183.068-160.992 100.959 0 183.099 72.22 183.099 160.992 0 88.756-82.139 160.965-183.099 160.965zM607.638-32.197h-337.562c-148.921 0-270.076 106.529-270.076 237.469 0 130.944 121.158 237.469 270.076 237.469h337.562c148.923 0 270.076-106.525 270.076-237.469 0-130.94-121.154-237.469-270.076-237.469zM270.076 366.241c-100.945 0-183.069-72.21-183.069-160.969s82.124-160.965 183.069-160.965h337.562c100.944 0 183.069 72.207 183.069 160.965s-82.125 160.969-183.069 160.969h-337.562z" />
<glyph unicode="&#xe904;" glyph-name="Settingsss" d="M367.273 11.395c7.443-44.659 43.81-70.779 79.318-70.779h161.501c35.508 0 71.877 26.12 79.319 70.779l8.708 52.249c0 0 0 0 0 0 4.338 26.006 36.475 51.765 73.609 37.851l49.603-18.579c0 0 0 0 0 0 33.87-12.689 74.502-0.283 95.412 35.926l80.749 139.862c22.385 38.777 12.009 87.183-19.309 112.968l-40.894 33.665c-23.63 19.452-23.63 52.22 0 71.672l40.894 33.665c31.314 25.78 41.697 74.188 19.309 112.964l-80.749 139.864c-20.906 36.208-61.538 48.616-95.408 35.927 0 0 0 0 0 0l-49.603-18.582c-37.138-13.913-69.276 11.845-73.613 37.851 0 0 0-0.001 0 0l-8.708 52.249c-7.442 44.664-43.811 70.779-79.319 70.779h-161.501c-35.504 0-71.875-26.115-79.318-70.778 0 0 0 0.001 0 0l-8.709-52.249c-4.334-26.004-36.47-51.766-73.609-37.853l-49.601 18.582c-33.871 12.689-74.502 0.285-95.41-35.925l-80.751-139.864c-22.386-38.776-12.007-87.181 19.309-112.966l40.896-33.665c0 0 0 0 0 0 23.626-19.452 23.627-52.22 0.001-71.672 0 0 0 0 0 0l-40.896-33.665c-31.317-25.784-41.697-74.187-19.312-112.964l80.751-139.866c20.908-36.209 61.54-48.615 95.411-35.926l49.601 18.579c37.139 13.914 69.276-11.846 73.609-37.851l8.709-52.249c0 0 0 0 0 0zM449.057 35.484l-7.606 45.642c0 0.004 0 0 0 0-15.532 93.192-107.118 138.863-183.139 110.383 0 0 0 0 0 0l-49.138-18.407-73.801 127.828 33.826 27.845c69.666 57.352 69.667 167.44 0.001 224.795l-33.827 27.846 73.801 127.828 49.138-18.408c76.021-28.48 167.608 17.187 183.135 110.379 0 0 0.004 0.001 0 0l7.61 45.642h156.57l7.606-45.64c15.536-93.191 107.119-138.861 183.14-110.381 0 0 0 0 0 0l49.14 18.408 73.802-127.828-33.825-27.846c-69.669-57.351-69.669-167.443 0-224.795l33.825-27.845-73.802-127.828-49.14 18.407c0 0 0 0 0 0-76.022 28.479-167.604-17.191-183.14-110.379l-7.606-45.646h-156.57zM527.344 337.568c-64.938 0-108.876 51.483-108.876 103.604s43.938 103.604 108.876 103.604c64.934 0 108.876-51.483 108.876-103.604s-43.942-103.604-108.876-103.604zM334.137 441.172c0-114.713 91.31-198.476 193.207-198.476s193.204 83.763 193.204 198.476c0 114.713-91.308 198.475-193.204 198.475s-193.207-83.762-193.207-198.475z" />
<glyph unicode="&#xe905;" glyph-name="Uploaddd" d="M64 960h896c35.2 0 64-27.106 64-60.235v-120.471c0-33.129-28.8-60.235-64-60.235s-64 27.106-64 60.235v60.235h-768v-60.235c0-33.129-28.8-60.235-64-60.235s-64 27.106-64 60.235v120.471c0 33.129 28.8 60.235 64 60.235zM256.088 357.649c-19.52 0-38.656 8.311-51.264 24.094-21.248 26.624-15.488 64.388 12.8 84.326l256.001 180.707c22.144 15.661 52.608 16.083 75.2 1.084l256-169.504c28.928-19.153 35.904-56.738 15.552-83.904-20.352-27.17-60.224-33.792-89.152-14.639l-155.409 102.891c0.124-1.515 0.183-3.042 0.183-4.587v-481.882c0-33.25-28.608-60.237-64-60.237s-64 26.987-64 60.237v481.852l-153.576-108.395c-11.52-8.132-24.96-12.045-38.336-12.045z" />
<glyph unicode="&#xe906;" glyph-name="userrr" horiz-adv-x="910" d="M455.179 428.263c145.268 0 264.018 119.58 264.018 265.868s-118.75 265.869-264.018 265.869c-145.267 0-264.015-119.582-264.015-265.869s118.749-265.868 264.015-265.868zM908.277 215.799c-6.918 17.416-16.141 33.671-26.518 48.765-53.032 78.947-134.887 131.193-227.123 143.963-11.526 1.161-24.208-1.161-33.432-8.128-48.424-35.992-106.067-54.564-166.021-54.564s-117.598 18.572-166.021 54.564c-9.224 6.967-21.906 10.449-33.434 8.128-92.234-12.77-175.242-65.016-227.123-143.963-10.376-15.095-19.6-32.51-26.516-48.765-3.458-6.967-2.306-15.091 1.152-22.058 9.224-16.255 20.752-32.51 31.128-46.44 16.14-22.062 33.434-41.794 53.035-60.37 16.14-16.255 34.587-31.35 53.035-46.44 91.079-68.502 200.607-104.49 313.592-104.49s222.515 35.992 313.594 104.49c18.443 13.93 36.891 30.185 53.032 46.44 18.447 18.576 36.894 38.313 53.036 60.37 11.529 15.095 21.906 30.185 31.13 46.44 5.761 6.967 6.914 15.095 3.455 22.058z" />
<glyph unicode="&#xe907;" glyph-name="arrow-rightt" d="M445.935 940.44c25.685 26.080 67.337 26.080 93.022 0l485.043-492.44-485.043-492.442c-25.685-26.078-67.337-26.078-93.022 0-25.69 26.082-25.69 68.365 0 94.447l392.013 397.995-392.013 397.995c-25.69 26.080-25.69 68.364 0 94.445zM19.266 940.44c25.689 26.080 67.338 26.080 93.026 0l485.041-492.44-485.041-492.442c-25.688-26.078-67.337-26.078-93.026 0-25.688 26.082-25.688 68.365 0 94.447l392.015 397.995-392.015 397.995c-25.688 26.080-25.688 68.364 0 94.445z" />
<glyph unicode="&#xe908;" glyph-name="Calendarr" d="M249.558 960c26.51 0 48-21.485 48-47.988v-32.242h166.442v32.242c0 26.503 21.491 47.988 48 47.988s48-21.485 48-47.988v-32.242h160v32.242c0 26.503 21.491 47.988 48 47.988s48-21.485 48-47.988v-32.242h32c97.203 0 176-78.778 176-175.957v-197.952c0-26.505-21.491-47.987-48-47.987s-48 21.483-48 47.987v197.952c0 44.172-35.819 79.98-80 79.98h-32v-31.831c0-26.503-21.491-47.988-48-47.988s-48 21.485-48 47.988v31.831h-160v-31.831c0-26.503-21.491-47.988-48-47.988s-48 21.485-48 47.988v31.831h-166.442v-31.831c0-26.503-21.49-47.988-48-47.988s-48 21.485-48 47.988v31.831h-25.558c-44.183 0-80-35.808-80-79.98v-591.855c0-44.173 35.817-79.979 80-79.979h277.999c26.509 0 48-21.487 48-47.991 0-26.5-21.491-47.987-48-47.987h-277.999c-97.202 0-176 78.78-176 175.957v591.855c0 97.178 78.798 175.957 176 175.957h25.558v32.242c0 26.503 21.49 47.988 48 47.988zM295.68 540.653c0-24.736-20.058-44.789-44.8-44.789s-44.8 20.053-44.8 44.789c0 24.736 20.058 44.789 44.8 44.789s44.8-20.053 44.8-44.789zM423.68 495.863c24.742 0 44.8 20.053 44.8 44.789s-20.058 44.789-44.8 44.789c-24.742 0-44.8-20.053-44.8-44.789s20.058-44.789 44.8-44.789zM295.68 365.973c0-24.734-20.058-44.787-44.8-44.787s-44.8 20.053-44.8 44.787c0 24.738 20.058 44.791 44.8 44.791s44.8-20.053 44.8-44.791zM423.68 321.186c24.742 0 44.8 20.053 44.8 44.787 0 24.738-20.058 44.791-44.8 44.791s-44.8-20.053-44.8-44.791c0-24.734 20.058-44.787 44.8-44.787zM295.68 192.576c0-24.734-20.058-44.787-44.8-44.787s-44.8 20.053-44.8 44.787c0 24.738 20.058 44.791 44.8 44.791s44.8-20.053 44.8-44.791zM423.68 147.789c24.742 0 44.8 20.053 44.8 44.787 0 24.738-20.058 44.791-44.8 44.791s-44.8-20.053-44.8-44.791c0-24.734 20.058-44.787 44.8-44.787zM643.2 540.653c0-24.736-20.058-44.789-44.8-44.789s-44.8 20.053-44.8 44.789c0 24.736 20.058 44.789 44.8 44.789s44.8-20.053 44.8-44.789zM771.2 495.863c24.742 0 44.8 20.053 44.8 44.789s-20.058 44.789-44.8 44.789c-24.742 0-44.8-20.053-44.8-44.789s20.058-44.789 44.8-44.789zM928 191.936c0 88.346-71.633 159.962-160 159.962s-160-71.616-160-159.962c0-88.341 71.633-159.957 160-159.957s160 71.616 160 159.957zM1024 191.936c0-141.35-114.615-255.936-256-255.936s-256 114.586-256 255.936c0 141.35 114.615 255.94 256 255.94s256-114.59 256-255.94zM780.8 255.923c0 17.668-14.327 31.991-32 31.991s-32-14.323-32-31.991v-95.979c0-17.668 14.327-31.991 32-31.991h76.8c17.673 0 32 14.323 32 31.991s-14.327 31.991-32 31.991h-44.8v63.987z" />
<glyph unicode="&#xe909;" glyph-name="Dashboardd" d="M884.365 960h-744.728c-37.034 0-72.551-17.981-98.738-49.987s-40.899-75.416-40.899-120.68v-682.667c0-45.265 14.712-88.674 40.899-120.678 26.187-32.009 61.704-49.988 98.738-49.988h744.728c37.035 0 72.55 17.98 98.735 49.988 26.189 32.004 40.9 75.413 40.9 120.678v682.667c0 45.264-14.711 88.673-40.9 120.68-26.185 32.006-61.7 49.987-98.735 49.987zM930.91 106.667c0-15.087-4.907-29.559-13.632-40.226-8.73-10.671-20.57-16.661-32.913-16.661h-744.728c-12.345 0-24.184 5.99-32.913 16.661-8.729 10.667-13.633 25.139-13.633 40.226v682.667c0 15.088 4.904 29.558 13.633 40.227s20.568 16.662 32.913 16.662h744.728c12.343 0 24.183-5.993 32.913-16.662 8.725-10.669 13.632-25.139 13.632-40.227v-682.667zM325.795 504.892c-12.345 0-24.183-5.995-32.913-16.666-8.729-10.667-13.633-25.139-13.633-40.226v-227.554c0-15.087 4.904-29.559 13.633-40.226 8.729-10.671 20.568-16.661 32.913-16.661s24.183 5.99 32.913 16.661c8.729 10.667 13.633 25.139 13.633 40.226v227.554c0 15.087-4.904 29.559-13.633 40.226-8.729 10.671-20.568 16.666-32.913 16.666zM511.979 618.668c-12.348 0-24.183-5.994-32.913-16.662s-13.632-25.139-13.632-40.227v-341.333c0-15.087 4.902-29.559 13.632-40.226 8.73-10.671 20.565-16.661 32.913-16.661 12.343 0 24.183 5.99 32.913 16.661 8.725 10.667 13.632 25.139 13.632 40.226v341.333c0 15.088-4.907 29.558-13.632 40.227-8.73 10.668-20.57 16.662-32.913 16.662zM698.159 732.445c-12.343 0-24.183-5.994-32.913-16.663s-13.632-25.138-13.632-40.227v-455.11c0-15.087 4.902-29.559 13.632-40.226 8.73-10.671 20.57-16.661 32.913-16.661s24.183 5.99 32.913 16.661c8.73 10.667 13.632 25.139 13.632 40.226v455.11c0 15.088-4.902 29.558-13.632 40.227s-20.57 16.663-32.913 16.663z" />
<glyph unicode="&#xe90a;" glyph-name="deletee" d="M921.6 755.2h51.2c28.16 0 51.2-23.040 51.2-51.2s-23.040-51.2-51.2-51.2h-51.2v-563.2c0-84.685-68.915-153.6-153.6-153.6h-512c-84.685 0-153.6 68.915-153.6 153.6v563.2h-51.2c-28.16 0-51.2 23.040-51.2 51.2s23.040 51.2 51.2 51.2h256v85.606c0 65.741 57.395 119.194 128 119.194h153.6c70.605 0 128-53.453 128-119.194v-85.606h204.8zM409.615 840.806c0 7.936 10.956 16.794 25.602 16.794h153.6c14.643 0 25.6-8.858 25.6-16.794v-85.606h-204.802v85.606zM767.893 38.4c28.262 0 51.2 22.989 51.2 51.2v563.2h-614.401v-563.2c0-28.211 22.938-51.2 51.2-51.2h512.001zM665.506 192c28.16 0 51.2 23.040 51.2 51.2v204.8c0 28.16-23.040 51.2-51.2 51.2s-51.2-23.040-51.2-51.2v-204.8c0-28.16 23.040-51.2 51.2-51.2zM358.353 192c28.16 0 51.2 23.040 51.2 51.2v204.8c0 28.16-23.040 51.2-51.2 51.2s-51.2-23.040-51.2-51.2v-204.8c0-28.16 23.040-51.2 51.2-51.2z" />
<glyph unicode="&#xe90b;" glyph-name="Downloadd" d="M448.179 413.321c-0.119 1.506-0.179 3.029-0.179 4.561v481.883c0 33.25 28.608 60.235 64 60.235s64-26.985 64-60.235v-481.879l153.613 108.42c28.288 20.059 68.416 14.578 89.6-12.045 21.248-26.624 15.488-64.393-12.8-84.331l-256-180.706c-11.328-8.013-24.896-12.045-38.4-12.045-12.864 0-25.728 3.674-36.8 10.961l-255.999 169.502c-28.928 19.153-35.904 56.742-15.552 83.908 20.352 27.226 60.224 33.792 89.152 14.635l155.366-102.865zM128 116.706v-60.237h768v60.237c0 33.131 28.8 60.237 64 60.237s64-27.106 64-60.237v-120.469c0-4.143-0.448-8.188-1.306-12.1-5.995-27.383-31.893-48.137-62.694-48.137h-896c-35.2 0-64 27.106-64 60.237v120.469c0 33.131 28.8 60.237 64 60.237s64-27.106 64-60.237z" />
<glyph unicode="&#xe90c;" glyph-name="eye-iconn" horiz-adv-x="1365" d="M664.223 919.908c-377.38-9.557-596.861-342.020-655.161-443.67-12.083-21.027-12.083-46.9 0-67.926 42.94-74.891 275.050-443.873 675.305-443.873 5.598 0 11.196 0.068 16.794 0.205 377.31 9.626 596.861 342.016 655.161 443.668 12.015 21.027 12.015 46.9 0 67.926-43.554 75.913-284.132 456.436-692.099 443.67zM697.674 101.109c-293.959-6.827-485.722 244.605-549.348 341.474 70.043 109.57 246.446 333.896 519.379 340.86 292.801 7.441 485.655-244.603 549.279-341.474-69.973-109.572-246.443-333.896-519.31-340.859zM443.743 442.282c0 131.756 107.18 238.936 238.935 238.936s238.939-107.18 238.939-238.936c0-131.759-107.184-238.938-238.939-238.938s-238.935 107.179-238.935 238.938zM580.278 442.282c0-56.456 45.943-102.399 102.4-102.399s102.4 45.943 102.4 102.399c0 56.457-45.943 102.401-102.4 102.401s-102.4-45.944-102.4-102.401z" />
<glyph unicode="&#xe90d;" glyph-name="heartt" horiz-adv-x="1170" d="M585.138-34.538c-15.56 0-30.418 6.144-41.418 17.198l-454.387 455.148c-119.11 119.345-119.11 313.514 0 432.858 57.508 57.566 134.321 89.333 216.166 89.333s158.658-31.767 216.166-89.333l63.473-63.592 63.42 63.533c57.563 57.625 134.378 89.391 216.22 89.391 81.847 0 158.661-31.767 216.166-89.333 119.111-119.345 119.111-313.513 0.059-432.858l-454.446-455.207c-10.996-10.996-25.854-17.14-41.418-17.14z" />
<glyph unicode="&#xe90e;" glyph-name="Add-to-collection1" horiz-adv-x="1170" d="M612.879 752.508h411.121c80.633 0 146.286-63.839 146.286-142.307v-502.638c0-78.468-65.653-142.307-146.286-142.307h-877.714c-80.633 0-146.286 63.839-146.286 142.307v710.129c0 78.468 65.653 142.307 146.286 142.307h269.224c17.496 0 34.172-7.899 45.29-21.475l152.079-186.017zM643.657 287.086h58.514c32.183 0 58.514 26.331 58.514 58.514s-26.331 58.514-58.514 58.514h-58.514v58.514c0 32.183-26.331 58.514-58.514 58.514s-58.514-26.331-58.514-58.514v-58.514h-58.514c-32.183 0-58.514-26.331-58.514-58.514s26.331-58.514 58.514-58.514h58.514v-58.514c0-32.183 26.331-58.514 58.514-58.514s58.514 26.331 58.514 58.514v58.514z" />
<glyph unicode="&#xe931;" glyph-name="Add-to-Cart-Button" horiz-adv-x="1067" d="M298.667-64c47.128 0 85.333 38.204 85.333 85.333s-38.205 85.333-85.333 85.333c-47.128 0-85.333-38.204-85.333-85.333s38.205-85.333 85.333-85.333zM725.333-64c47.13 0 85.333 38.204 85.333 85.333s-38.204 85.333-85.333 85.333c-47.13 0-85.333-38.204-85.333-85.333s38.204-85.333 85.333-85.333zM980.651 703.232c-30.033 28.719-70.242 44.341-111.787 43.435h-627.627l-11.221 87.979c-4.075 34.531-20.677 66.365-46.66 89.47s-59.54 35.873-94.31 35.884h-25.045c-16.974 0-33.253-6.743-45.255-18.745s-18.745-28.281-18.745-45.255c0-16.974 6.743-33.253 18.745-45.255s28.281-18.745 45.255-18.745h25.045c3.491-0.038 6.843-1.366 9.412-3.73s4.171-5.595 4.497-9.070l64-501.717c4.037-34.556 20.624-66.428 46.612-89.562s59.567-35.917 94.359-35.921h431.872c51.375 0.030 101.316 16.917 142.165 48.073 40.853 31.151 70.349 74.85 83.968 124.386l53.163 193.323c7.087 25.474 7.262 52.375 0.503 77.939-6.754 25.563-20.198 48.866-38.946 67.511zM842.667 398.379c-6.246-22.498-19.682-42.338-38.255-56.486-18.573-14.153-41.263-21.841-64.614-21.892h-431.872c-3.489 0.030-6.842 1.357-9.405 3.721-2.564 2.368-4.154 5.602-4.462 9.079l-36.48 285.867h617.685c3.294 0.025 6.554-0.714 9.515-2.159s5.547-3.556 7.556-6.169c2.010-2.612 3.383-5.655 4.019-8.888 0.64-3.233 0.516-6.57-0.354-9.749l-53.333-193.323z" />
<glyph unicode="&#xe932;" glyph-name="Add-to-collection" horiz-adv-x="1069" d="M186.991 919.931c-49.528-0.211-96.968-19.979-131.99-55.002s-54.791-82.461-55.002-131.99v-587.687c0-102.685 84.306-186.991 186.991-186.991h694.539c102.685 0 186.991 84.306 186.991 186.991v458.183c0 84.787-69.133 154.936-153.867 156.218-0.285 0.002-0.57 0.002-0.855 0h-236.036l-64.432 102.952c-11.010 17.538-26.286 31.996-44.406 42.022-18.116 10.026-38.48 15.292-59.187 15.304h-322.747zM186.991 813.079h322.747c5.343 0 10.151-2.671 13.036-7.213l80.139-128.062c4.817-7.664 11.5-13.979 19.425-18.353s16.829-6.662 25.88-6.65h264.726c6.456 0.015 12.853-1.257 18.81-3.74 5.961-2.483 11.366-6.129 15.903-10.725s8.112-10.049 10.516-16.041c2.409-5.992 3.593-12.403 3.495-18.859v-458.183c0-45.359-34.834-80.139-80.139-80.139h-694.539c-45.305 0-80.139 34.727-80.139 80.139v587.687c0 45.305 34.834 80.139 80.139 80.139zM534.261 565.769c-14.171 0-27.759-5.629-37.777-15.648-10.022-10.019-15.649-23.609-15.649-37.778v-80.353h-80.246c-14.169 0-27.759-5.628-37.778-15.649-10.019-10.017-15.648-23.605-15.648-37.777s5.629-27.759 15.648-37.777c10.019-10.022 23.609-15.649 37.778-15.649h80.246v-80.246c0-14.171 5.628-27.759 15.649-37.777 10.017-10.022 23.605-15.649 37.777-15.649s27.759 5.628 37.777 15.649c10.022 10.017 15.649 23.605 15.649 37.777v80.246h80.246c14.171 0 27.759 5.628 37.777 15.649 10.022 10.017 15.649 23.605 15.649 37.777s-5.628 27.759-15.649 37.777c-10.017 10.022-23.605 15.649-37.777 15.649h-80.246v80.353c0 14.169-5.628 27.759-15.649 37.778-10.017 10.019-23.605 15.648-37.777 15.648z" />
<glyph unicode="&#xe933;" glyph-name="Author-Afiliate" horiz-adv-x="939" d="M891.469 534.844l-399.373 399.434c-23.556 23.496-61.658 23.218-84.904 0.030-23.378-23.438-23.378-61.494 0-84.902l399.434-399.405c23.398-23.403 61.444-23.403 84.843 0 23.467 23.462 23.467 61.385 0 84.843zM377.562 794.19l-3.006-15.068c-21.174-105.916-72.634-206.538-142.236-288.093l217.292-217.293c81.545 69.589 180.783 122.428 286.703 143.629l15.095 3.008-373.849 373.817zM192.483 446.020l-148.506-148.476c-35.090-35.089-35.236-92.058 0-127.292l84.844-84.847c35.090-35.089 92.058-35.23 127.294 0l148.492 148.493-212.124 212.122zM213.694 212.672c-11.718-11.716-30.704-11.716-42.422 0s-11.718 30.703 0 42.423l42.422 42.419c11.718 11.721 30.704 11.721 42.422 0 11.718-11.716 11.718-30.703 0-42.419l-42.422-42.423zM529.865 69.444l40.811 40.811c35.238 35.23 35.123 92.198 0 127.262l-30.31 30.332c-16.755-11.251-32.755-23.479-48.311-36.527l36.203-36.254c11.686-11.631 11.772-30.558 0-42.394l-41.485-41.485-60.965 59.068-84.848-84.851 136.115-131.891c23.228-23.287 61.363-23.42 84.813 0.030 23.407 23.407 23.407 61.461 0 84.873l-32.021 31.027zM651.059 960c-16.58 0-29.999-13.418-29.999-30v-60c0-16.582 13.419-30 29.999-30 16.585 0 30.003 13.418 30.003 30v60c0 16.582-13.419 30-30.003 30zM891.059 720h-59.998c-16.585 0-29.999-13.418-29.999-30s13.414-30 29.999-30h59.998c16.585 0 30.003 13.418 30.003 30s-13.419 30-30.003 30zM852.271 891.212c-11.721 11.718-30.703 11.718-42.423 0l-59.998-60c-11.721-11.718-11.721-30.704 0-42.422 11.716-11.718 30.703-11.72 42.419 0l60.002 60c11.716 11.718 11.716 30.704 0 42.422z" />
<glyph unicode="&#xe934;" glyph-name="Author-Award" d="M972.8 908.8h-153.6v51.2h-614.4v-51.2h-153.6c-30.72 0-51.2-20.48-51.2-51.2v-122.88c0-117.76 87.040-215.040 204.8-230.4v-5.12c0-148.48 102.4-271.36 240.64-302.080l-35.84-107.52h-117.76c-20.48 0-40.96-15.36-46.080-35.84l-40.96-117.76h614.4l-40.96 117.76c-5.12 20.48-25.6 35.84-46.080 35.84h-117.76l-35.84 107.52c138.24 30.72 240.64 153.6 240.64 302.080v5.12c117.76 15.36 204.8 112.64 204.8 230.4v122.88c0 30.72-20.48 51.2-51.2 51.2zM204.8 606.72c-56.32 15.36-102.4 66.56-102.4 128v71.68h102.4v-199.68zM614.4 448l-102.4 56.32-102.4-56.32 25.6 102.4-76.8 102.4h107.52l46.080 102.4 46.080-102.4h107.52l-76.8-102.4 25.6-102.4zM921.6 734.72c0-61.44-46.080-117.76-102.4-128v199.68h102.4v-71.68z" />
<glyph unicode="&#xe935;" glyph-name="Author-Badge" d="M512 812.501c-8.486 0-16.627 3.372-22.626 9.373-6.003 6.001-9.374 14.141-9.374 22.627v83.499c0 8.487 3.371 16.626 9.374 22.627 5.999 6.001 14.14 9.373 22.626 9.373s16.627-3.371 22.626-9.373c6.003-6.001 9.374-14.141 9.374-22.627v-83.499c0-8.487-3.371-16.626-9.374-22.627-5.999-6.001-14.14-9.373-22.626-9.373zM792.363 696.363c-6.332-0.003-12.527 1.874-17.792 5.393s-9.37 8.521-11.793 14.374c-2.419 5.853-3.051 12.292-1.809 18.503s4.297 11.914 8.781 16.387l59.051 59.051c2.974 2.973 6.502 5.33 10.385 6.939s8.047 2.437 12.25 2.437c4.203 0 8.367-0.828 12.25-2.437s7.411-3.966 10.385-6.939c2.974-2.973 5.329-6.501 6.938-10.385s2.436-8.046 2.436-12.25c0-4.204-0.828-8.366-2.436-12.25s-3.964-7.412-6.938-10.385l-59.051-59.051c-6.012-6.005-14.161-9.381-22.656-9.387zM992 416h-83.499c-8.486 0-16.627 3.371-22.626 9.374-6.003 5.999-9.374 14.14-9.374 22.626s3.371 16.627 9.374 22.626c5.999 6.003 14.14 9.374 22.626 9.374h83.499c8.486 0 16.627-3.371 22.626-9.374 6.003-5.999 9.374-14.14 9.374-22.626s-3.371-16.627-9.374-22.626c-5.999-6.003-14.14-9.374-22.626-9.374zM851.413 76.587c-4.203-0.009-8.367 0.815-12.25 2.423-3.878 1.613-7.403 3.981-10.364 6.963l-59.051 59.051c-2.974 2.974-5.329 6.502-6.938 10.385s-2.436 8.047-2.436 12.25c0 4.203 0.828 8.367 2.436 12.25s3.964 7.411 6.938 10.385c2.974 2.974 6.502 5.329 10.385 6.938s8.047 2.436 12.25 2.436c4.203 0 8.367-0.828 12.25-2.436s7.411-3.964 10.385-6.938l59.051-59.051c4.489-4.476 7.543-10.185 8.785-16.397 1.237-6.217 0.606-12.659-1.822-18.513s-6.537-10.854-11.81-14.37c-5.274-3.516-11.473-5.389-17.809-5.376zM172.587 76.587c-6.334-0.004-12.526 1.873-17.792 5.393s-9.37 8.521-11.792 14.374c-2.421 5.85-3.052 12.292-1.811 18.5 1.241 6.212 4.297 11.917 8.781 16.388l59.051 59.051c2.973 2.974 6.501 5.329 10.385 6.938s8.046 2.436 12.25 2.436c4.204 0 8.366-0.828 12.25-2.436s7.412-3.964 10.385-6.938c2.973-2.974 5.33-6.502 6.939-10.385s2.437-8.047 2.437-12.25c0-4.203-0.828-8.367-2.437-12.25s-3.966-7.411-6.939-10.385l-59.051-59.051c-2.971-2.982-6.502-5.346-10.391-6.955-3.888-1.613-8.057-2.441-12.265-2.432zM115.499 416h-83.499c-8.487 0-16.626 3.371-22.627 9.374-6.001 5.999-9.373 14.14-9.373 22.626s3.371 16.627 9.373 22.626c6.001 6.003 14.141 9.374 22.627 9.374h83.499c8.487 0 16.626-3.371 22.627-9.374 6.001-5.999 9.373-14.14 9.373-22.626s-3.372-16.627-9.373-22.626c-6.001-6.003-14.141-9.374-22.627-9.374zM231.637 696.363c-4.203-0.010-8.366 0.814-12.248 2.426s-7.405 3.977-10.365 6.961l-59.051 59.051c-2.973 2.973-5.33 6.501-6.939 10.385s-2.437 8.046-2.437 12.25c0 4.204 0.828 8.366 2.437 12.25s3.966 7.412 6.939 10.385c2.973 2.973 6.501 5.33 10.385 6.939s8.046 2.437 12.25 2.437c4.204 0 8.366-0.828 12.25-2.437s7.412-3.966 10.385-6.939l59.051-59.051c4.487-4.475 7.544-10.182 8.783-16.397s0.605-12.658-1.821-18.513c-2.427-5.854-6.537-10.856-11.81-14.371s-11.471-5.386-17.808-5.375zM640 64v-53.333c0-40.96-33.707-74.667-74.667-74.667h-106.667c-35.84 0-74.667 27.307-74.667 87.040v40.96h256zM700.16 680.107c-34.884 28.185-75.652 48.183-119.292 58.521s-89.045 10.752-132.868 1.212c-113.067-23.467-204.8-115.627-228.267-228.693-23.893-116.053 19.627-231.253 112.64-301.653 25.173-18.773 42.667-47.787 48.64-81.493v-0.427c0.853 0.427 2.133 0.427 2.987 0.427h256c0.853 0 1.28 0 2.133-0.427v0.427c5.973 32.427 25.173 62.293 54.613 85.333 35.537 27.917 64.26 63.552 83.998 104.209 19.738 40.653 29.969 85.265 29.922 130.458 0 90.453-40.107 174.933-110.507 232.107zM672 426.667c-17.493 0-32 14.507-32 32 0 64.853-52.48 117.333-117.333 117.333-17.493 0-32 14.507-32 32s14.507 32 32 32c48.060-0.113 94.114-19.254 128.098-53.236 33.98-33.982 53.124-80.038 53.235-128.098 0-17.493-14.507-32-32-32zM381.013 128h2.987c-0.853 0-2.133 0-2.987-0.427v0.427zM642.133 128v-0.427c-0.853 0.427-1.28 0.427-2.133 0.427h2.133z" />
<glyph unicode="&#xe936;" glyph-name="Author-Crown" horiz-adv-x="1170" d="M959.634 117.394h-748.983c-38.713 0-70.217-31.5-70.217-70.217 0-38.712 31.504-70.217 70.217-70.217h748.983c38.712 0 70.217 31.505 70.217 70.217 0 38.717-31.505 70.217-70.217 70.217zM1076.663 819.567c-51.634 0-93.623-41.991-93.623-93.623 0-34.688 19.193-64.692 47.323-80.889-54.16-128.263-138.654-206.954-217.624-199.839-87.82 7.163-159.442 110.991-198.949 284.708 50.649 12.827 88.381 58.468 88.381 113.049 0 64.553-52.478 117.029-117.029 117.029-64.556 0-117.031-52.476-117.031-117.029 0-54.583 37.73-100.224 88.379-113.049-39.507-173.717-111.13-277.545-198.948-284.708-78.642-7.114-163.513 71.577-217.625 199.839 28.132 16.197 47.325 46.203 47.325 80.889 0 51.632-41.991 93.623-93.623 93.623-51.63 0-93.62-41.991-93.62-93.623 0-48.030 36.512-87.257 83.136-92.592l90.16-469.147h823.695l90.156 469.147c46.626 5.335 83.139 44.563 83.139 92.592 0 51.632-41.989 93.623-93.623 93.623z" />
<glyph unicode="&#xe937;" glyph-name="Author-Diomond" horiz-adv-x="1117" d="M857.591 722.797v203.339h-216.418l216.418-203.339zM309.402 679.868h498.288l-249.144 234.089-249.144-234.089zM840.294 614.413h-563.496l281.747-644.552 281.749 644.552zM259.501 722.797l216.417 203.339h-216.417v-203.339zM194.047 679.868v196.974l-186.956-196.974h186.956zM923.043 679.868h186.959l-186.959 196.974v-196.974zM911.728 614.413l-229.795-525.693 435.158 525.693h-205.363zM205.364 614.413h-205.364l435.157-525.693-229.794 525.693z" />
<glyph unicode="&#xe938;" glyph-name="Author-Tranding" horiz-adv-x="555" d="M552.823 580.805c-1.451 2.887-3.691 5.324-6.464 7.042-2.778 1.717-5.986 2.648-9.267 2.689l-214.184 2.636 97.633 344.696c1.126 3.957 0.791 8.176-0.946 11.914s-4.765 6.754-8.549 8.516c-3.779 1.771-8.075 2.175-12.129 1.142s-7.606-3.437-10.028-6.789l-385.603-532.355c-1.891-2.611-3.013-5.683-3.243-8.879s0.442-6.391 1.94-9.237c1.499-2.846 3.767-5.231 6.557-6.899 2.79-1.664 5.993-2.547 9.259-2.547h165.786l-135.345-434.163c-1.229-3.934-1.003-8.166 0.639-11.951s4.593-6.878 8.334-8.738c3.741-1.856 8.031-2.359 12.113-1.421 4.082 0.943 7.695 3.268 10.2 6.566l471.614 619.625c1.958 2.58 3.153 5.641 3.452 8.844 0.294 3.203-0.316 6.425-1.771 9.309z" />
<glyph unicode="&#xe939;" glyph-name="BehanceAuthor-Crown" horiz-adv-x="1638" d="M674.051 497.114c33.997 17.102 59.706 36.15 77.319 56.734 31.334 37.072 46.797 86.228 46.797 147.16 0 59.294-15.462 109.986-46.387 152.486-51.616 69.228-138.968 104.662-262.473 106.505h-489.307v-998.789h456.229c51.409 0 99.029 4.403 143.064 13.414 44.036 9.114 82.132 25.812 114.387 50.183 28.679 21.197 52.64 47.514 71.687 78.548 30.112 46.899 45.165 100.052 45.165 159.246 0 57.347-13.21 106.196-39.431 146.34-26.522 40.144-65.434 69.535-117.050 88.173zM201.847 786.52h220.383c48.439 0 88.379-5.222 119.715-15.565 36.253-15.054 54.379-45.674 54.379-92.372 0-41.885-13.825-71.174-41.168-87.662-27.548-16.488-63.289-24.783-107.119-24.783h-246.189v220.383zM550.342 152.098c-24.373-11.776-58.679-17.613-102.613-17.613h-245.882v266.366h249.262c43.421-0.307 77.216-6.042 101.384-16.795 43.011-19.458 64.414-55.096 64.414-107.221 0-61.447-22.12-102.816-66.565-124.737zM1047.020 913.404h433.91v-124.323h-433.91v124.323zM1631.669 422.766c-9.011 57.861-28.877 108.758-59.802 152.691-33.901 49.77-76.909 86.228-129.242 109.27-52.122 23.144-110.804 34.716-176.142 34.614-109.677 0-198.772-34.307-267.694-102.408-68.717-68.306-103.124-166.515-103.124-294.526 0-136.509 37.99-235.127 114.388-295.652 76.090-60.628 163.956-90.836 263.7-90.836 120.743 0 214.651 35.942 281.723 107.629 42.912 45.268 67.181 89.812 72.506 133.543h-199.898c-11.571-21.613-24.986-38.509-40.352-50.797-27.853-22.528-64.102-33.792-108.551-33.792-42.291 0-78.138 9.318-108.039 27.853-49.364 29.696-75.168 81.722-78.445 155.764h545.526c0.819 63.799-1.229 112.853-6.554 146.648zM1097.612 403.616c7.168 48.030 24.576 86.125 52.231 114.287 27.648 28.060 66.765 42.192 116.845 42.295 46.189 0 84.794-13.211 116.231-39.735 31.034-26.728 48.544-65.541 52.128-116.848h-337.435z" />
<glyph unicode="&#xe93a;" glyph-name="Bulet-Icon" horiz-adv-x="1229" d="M440.773-34.929c-6.656 0-13.344 2.529-18.431 7.613l-414.709 414.71c-2.419 2.417-4.339 5.289-5.648 8.448s-1.983 6.548-1.983 9.969c0 3.42 0.674 6.804 1.983 9.969 1.309 3.159 3.229 6.031 5.648 8.448l157.916 157.915c2.418 2.419 5.288 4.339 8.449 5.648s6.546 1.983 9.967 1.983c3.42 0 6.807-0.674 9.967-1.983s6.031-3.229 8.449-5.648l233.21-233.209c1.378-1.367 3.242-2.135 5.184-2.135s3.805 0.768 5.183 2.135l580.435 580.432c4.895 4.896 11.52 7.616 18.432 7.616s13.532-2.752 18.427-7.616l157.916-157.916c2.422-2.418 4.342-5.288 5.652-8.448 1.306-3.16 1.981-6.547 1.981-9.968s-0.676-6.807-1.981-9.967c-1.311-3.16-3.231-6.030-5.652-8.448l-761.962-761.934c-2.42-2.417-5.294-4.337-8.457-5.642-3.163-1.311-6.553-1.976-9.975-1.971z" />
<glyph unicode="&#xe93b;" glyph-name="Candel" horiz-adv-x="683" d="M137.362 559.073v-186.393c0-20.676 16.821-37.5 37.496-37.5s37.496 16.819 37.496 37.5v155.072h60.061v-70.451c0-20.292 16.511-36.804 36.806-36.804s36.803 16.512 36.803 36.804v69.461h152.502c20.169 0 36.574 16.409 36.574 36.575s-16.405 36.575-36.574 36.575h-320.326c-22.517-0.002-40.838-18.323-40.838-40.84zM521.199 469.414c-7.424-1.801-15.036-2.709-22.669-2.714h-92.444v-9.399c0-53.414-43.454-96.866-96.864-96.866-12.67-0.013-25.219 2.47-36.928 7.313-2.575-51.511-45.292-92.625-97.433-92.625-8.134 0-16.034 1.015-23.592 2.901v-150.242h369.929v341.632zM42.128 67.725h598.414v-131.725h-598.414v131.725zM306.201 695.92v-35.951h60.061v35.951c45.67 13.083 79.208 55.188 79.208 105.004 0 25.654-15.202 56.558-46.464 94.472-20.793 25.215-41.378 44.561-42.245 45.374l-20.529 19.229-20.529-19.227c-0.867-0.811-21.452-20.156-42.245-45.374-31.266-37.916-46.463-68.82-46.463-94.472 0-49.818 33.534-91.923 79.206-105.007z" />
<glyph unicode="&#xe93c;" glyph-name="Cart" horiz-adv-x="1170" d="M547.25 113.474c9.904-0.005 19.705-1.96 28.852-5.754s17.457-9.353 24.454-16.36c6.997-7.002 12.546-15.316 16.33-24.469 3.784-9.148 5.73-18.954 5.725-28.857-0.005-9.899-1.96-19.705-5.754-28.852-3.794-9.143-9.353-17.452-16.355-24.449-7.007-7.002-15.321-12.551-24.469-16.335-9.153-3.784-18.959-5.73-28.857-5.725-19.997 0.010-39.175 7.963-53.307 22.109-14.133 14.151-22.068 33.334-22.058 53.331s7.964 39.17 22.112 53.302c14.146 14.136 33.329 22.070 53.326 22.060zM875.047 113.474c9.899-0.005 19.705-1.96 28.852-5.754 9.143-3.794 17.452-9.353 24.449-16.36 7.002-7.002 12.551-15.316 16.335-24.469 3.784-9.148 5.73-18.954 5.725-28.857-0.005-9.899-1.96-19.705-5.754-28.852-3.794-9.143-9.353-17.452-16.355-24.449-7.007-7.002-15.321-12.551-24.474-16.335-9.148-3.784-18.954-5.73-28.857-5.725-19.997 0.010-39.17 7.963-53.302 22.109-14.136 14.151-22.070 33.334-22.060 53.331s7.963 39.17 22.114 53.302c14.146 14.136 33.329 22.070 53.326 22.060zM46.844 866.312h106.467c10.106 0.004 19.934-3.308 27.976-9.428s13.855-14.709 16.545-24.45l149.376-537.659c8.224-29.618 25.927-55.73 50.4-74.338 24.473-18.603 54.368-28.677 85.11-28.682h455.022c31.383 0 61.869 10.489 86.601 29.813 24.732 19.319 42.291 46.353 49.883 76.805l94.661 378.576c1.726 6.907 1.858 14.116 0.38 21.080s-4.525 13.499-8.909 19.11c-4.379 5.611-9.986 10.148-16.384 13.269s-13.424 4.742-20.543 4.74h-651.543c-12.424 0-24.339-4.935-33.123-13.72s-13.721-20.7-13.721-33.123c0-12.424 4.936-24.339 13.721-33.124s20.7-13.72 33.123-13.72h591.546l-80.121-320.452c-2.54-10.162-8.407-19.178-16.667-25.624-8.255-6.441-18.432-9.943-28.906-9.938h-455.022c-10.266 0.005-20.248 3.374-28.422 9.587s-14.091 14.926-16.848 24.815l-149.376 537.694c-8.17 29.463-25.773 55.436-50.112 73.941s-54.074 28.522-84.649 28.516h-106.467c-12.424 0-24.339-4.935-33.124-13.72s-13.72-20.7-13.72-33.124c0-12.424 4.935-24.339 13.72-33.124s20.7-13.721 33.124-13.721z" />
<glyph unicode="&#xe93d;" glyph-name="Check-Button" d="M170.667-64h682.667c94.093 0 170.667 76.574 170.667 170.667v682.667c0 94.094-76.574 170.667-170.667 170.667h-682.667c-94.094 0-170.667-76.573-170.667-170.667v-682.667c0-94.093 76.573-170.667 170.667-170.667zM113.75 789.334c0 31.346 25.543 56.889 56.889 56.889h682.665c31.347 0 56.892-25.543 56.892-56.889v-682.667c0-31.347-25.545-56.887-56.892-56.887h-682.665c-31.346 0-56.889 25.54-56.889 56.887v682.667z" />
<glyph unicode="&#xe93e;" glyph-name="Dimond" horiz-adv-x="1170" d="M585.167-39.643c-6.417 0-12.746 1.477-18.495 4.311-5.754 2.833-10.772 6.944-14.672 12.025-3.901 5.076-6.573 10.981-7.817 17.257-1.239 6.271-1.014 12.746 0.658 18.92l180.985 666.041c2.916 10.641 9.943 19.697 19.544 25.189 9.596 5.492 20.987 6.971 31.681 4.116 10.689-2.889 19.788-9.889 25.303-19.463 5.51-9.573 6.988-20.937 4.096-31.593l-180.98-666.043c-2.404-8.821-7.651-16.613-14.936-22.172-7.28-5.554-16.194-8.572-25.366-8.587zM585.118-39.648c-9.172 0.015-18.091 3.033-25.376 8.597s-12.527 13.361-14.926 22.187l-180.981 666.043c-2.888 10.656-1.413 22.019 4.1 31.593s14.613 16.574 25.302 19.463c10.691 2.861 22.083 1.383 31.684-4.109s16.626-14.553 19.54-25.197l180.984-666.040c1.677-6.173 1.902-12.654 0.663-18.929s-3.911-12.181-7.812-17.262c-3.896-5.081-8.919-9.196-14.672-12.034-5.754-2.833-12.083-4.306-18.505-4.311zM585.162-39.624c-6.212-0.010-12.351 1.365-17.964 4.028-5.612 2.658-10.552 6.539-14.463 11.352l-542.929 666.042c-3.57 4.229-6.259 9.124-7.911 14.4s-2.233 10.826-1.71 16.328c0.523 5.502 2.14 10.845 4.757 15.717s6.181 9.177 10.484 12.662c4.303 3.485 9.26 6.081 14.58 7.637s10.899 2.040 16.409 1.424c5.51-0.616 10.842-2.319 15.685-5.010s9.099-6.317 12.522-10.666l542.926-666.042c4.979-6.105 8.114-13.488 9.050-21.299 0.941-7.807-0.361-15.721-3.75-22.825s-8.728-13.102-15.399-17.306c-6.671-4.203-14.399-6.437-22.289-6.441zM585.123-39.624c-7.895 0.005-15.618 2.238-22.289 6.441s-12.010 10.201-15.399 17.306c-3.389 7.105-4.691 15.019-3.75 22.825 0.936 7.812 4.072 15.194 9.050 21.299l542.925 666.042c3.423 4.348 7.68 7.974 12.522 10.665s10.177 4.395 15.687 5.010c5.51 0.616 11.088 0.132 16.408-1.424s10.279-4.152 14.58-7.637c4.306-3.485 7.865-7.789 10.484-12.662s4.233-10.216 4.759-15.718c0.522-5.502-0.059-11.052-1.712-16.328s-4.34-10.171-7.909-14.4l-542.93-666.041c-3.911-4.813-8.85-8.694-14.463-11.352-5.612-2.662-11.752-4.037-17.964-4.028zM947.088 876.181h-723.889c-11.077 0-21.7 4.386-29.532 12.192s-12.232 18.395-12.232 29.435c0 11.040 4.4 21.628 12.232 29.435s18.455 12.192 29.532 12.192h723.889c11.074 0 21.699-4.386 29.53-12.192s12.234-18.395 12.234-29.435c0-11.040-4.403-21.629-12.234-29.435s-18.456-12.192-29.53-12.192zM1128.112 626.415c-6.617-0.014-13.146 1.544-19.037 4.545-5.895 3-10.986 7.358-14.858 12.71l-180.98 249.765c-3.321 4.424-5.725 9.463-7.070 14.822-1.351 5.36-1.609 10.933-0.775 16.395 0.839 5.462 2.755 10.703 5.647 15.419 2.887 4.715 6.69 8.81 11.181 12.045 4.496 3.235 9.591 5.547 14.989 6.8s10.996 1.422 16.457 0.497c5.466-0.925 10.693-2.925 15.375-5.883s8.724-6.816 11.893-11.349l180.985-249.765c4.501-6.212 7.197-13.542 7.782-21.183 0.59-7.641-0.946-15.295-4.442-22.119s-8.816-12.556-15.37-16.561c-6.554-4.005-14.092-6.129-21.777-6.138zM766.084 626.416c-7.695-0.006-15.238 2.108-21.806 6.11-6.563 4.002-11.888 9.735-15.384 16.565-3.501 6.831-5.037 14.492-4.437 22.138 0.595 7.646 3.301 14.978 7.821 21.187l180.96 249.765c6.563 8.744 16.311 14.567 27.141 16.214s21.875-1.013 30.754-7.407c8.884-6.394 14.887-16.011 16.72-26.777s-0.649-21.819-6.914-30.776l-180.965-249.765c-3.867-5.35-8.962-9.705-14.853-12.705-5.895-3-12.42-4.56-19.037-4.549zM404.118 626.416c-7.694-0.006-15.24 2.108-21.804 6.11s-11.889 9.735-15.388 16.565c-3.499 6.831-5.034 14.492-4.437 22.138s3.304 14.978 7.821 21.187l180.982 249.765c6.563 8.744 16.311 14.567 27.141 16.214s21.875-1.013 30.754-7.407c8.884-6.394 14.887-16.011 16.72-26.777s-0.649-21.819-6.914-30.776l-180.984-249.765c-3.871-5.35-8.962-9.705-14.856-12.705s-12.418-4.56-19.036-4.549zM766.167 626.415c-6.617-0.014-13.141 1.544-19.037 4.545-5.89 3-10.986 7.358-14.853 12.71l-180.985 249.765c-6.266 8.957-8.748 20.010-6.914 30.776s7.836 20.382 16.72 26.777c8.88 6.394 19.924 9.055 30.754 7.407s20.578-7.47 27.141-16.214l180.985-249.765c4.501-6.212 7.192-13.542 7.782-21.183s-0.951-15.295-4.442-22.119c-3.496-6.825-8.816-12.556-15.37-16.561s-14.092-6.129-21.782-6.138zM404.203 626.415c-6.617-0.010-13.142 1.549-19.036 4.549s-10.985 7.356-14.855 12.706l-180.962 249.765c-3.321 4.424-5.725 9.463-7.071 14.822s-1.61 10.933-0.773 16.395c0.836 5.462 2.755 10.703 5.644 15.419s6.692 8.81 11.185 12.045c4.493 3.235 9.589 5.547 14.987 6.8s10.994 1.422 16.459 0.497c5.465-0.925 10.691-2.925 15.373-5.883s8.725-6.816 11.896-11.349l180.962-249.765c4.501-6.212 7.195-13.542 7.784-21.183s-0.949-15.295-4.445-22.119c-3.496-6.825-8.814-12.556-15.369-16.561s-14.091-6.129-21.779-6.138zM42.172 626.416c-7.691 0.001-15.232 2.121-21.791 6.124s-11.881 9.735-15.378 16.563c-3.497 6.828-5.034 14.485-4.441 22.129s3.293 14.974 7.803 21.185l180.983 249.765c6.563 8.744 16.31 14.567 27.14 16.214s21.876-1.013 30.757-7.407c8.881-6.394 14.885-16.011 16.719-26.777s-0.65-21.819-6.916-30.776l-180.983-249.765c-3.87-5.35-8.962-9.705-14.855-12.705s-12.418-4.56-19.036-4.549zM1128.068 626.414h-1085.855c-11.076 0-21.699 4.386-29.531 12.192s-12.232 18.395-12.232 29.435c0 11.040 4.4 21.628 12.232 29.435s18.455 12.192 29.531 12.192h1085.855c11.079 0 21.699-4.386 29.53-12.192 7.836-7.807 12.234-18.395 12.234-29.435s-4.398-21.628-12.234-29.435c-7.831-7.807-18.452-12.192-29.53-12.192z" />
<glyph unicode="&#xe93f;" glyph-name="Dribbble" d="M512 959.987c-282.32 0-512-229.68-512-511.996 0-282.313 229.68-511.991 512-511.991 282.321 0 512 229.679 512 511.991 0 282.316-229.679 511.996-512 511.996zM845.649 718.519c57.481-70.753 92.868-160.057 95.808-257.407-106.47 22.042-202.884 19.456-287.996 2.769-14.852 34.714-30.677 69.005-47.467 102.824 92.693 39.93 173.385 90.932 239.654 151.814zM787.972 777.137c-65.779-60.044-142.012-104.501-220.070-137.324-57.293 104.77-112.111 183.666-145.502 228.502 29.453 6.287 59.486 9.46 89.6 9.465 104.99 0 201.254-37.891 275.972-100.643zM339.372 841.467c25.216-32.675 85.276-114.487 149.793-230.886-162.147-52.826-319.479-61.726-395.082-62.554 31.512 131.64 123.699 239.884 245.289 293.44zM82.656 465.613l2.423-0.004c52.239 0 147.95 3.511 260.628 24.055 64.286 11.725 125.244 27.503 182.443 47.057 15.505-30.874 30.191-62.148 44.049-93.794-80.094-25.783-147.633-62.886-201.134-99.725-89.715-61.781-152.565-130.325-186.883-172.706-63.54 74.935-101.975 171.785-101.975 277.495 0 5.909 0.208 11.767 0.449 17.621zM243.42 112.815c29.545 37.201 89.682 104.913 176.673 164.326 59.118 40.38 120.28 70.379 183.244 90.069 36.535-94.69 67.721-199.317 86.319-310.413-55.765-25.463-116.352-38.626-177.655-38.592-101.564 0-194.945 35.486-268.58 94.609zM765.286 101.065c-19.166 102.029-47.748 197.965-80.789 285.641 81.276 13.713 165.274 10.884 251.546-8.495-18.603-113.391-81.702-211.951-170.756-277.146z" />
<glyph unicode="&#xe940;" glyph-name="Drown-Arrow-Line" horiz-adv-x="2048" d="M1024.060-64c-33.357 0-66.56 11.264-93.628 33.937l-877.779 731.485c-62.030 51.643-70.515 143.956-18.726 205.985 51.642 62.030 143.809 70.369 205.986 18.726l785.76-654.822 784.435 631.268c62.908 50.619 155.076 40.67 205.696-22.237s40.67-154.928-22.238-205.693l-877.781-706.317c-26.769-21.504-59.247-32.333-91.725-32.333z" />
<glyph unicode="&#xe941;" glyph-name="Dwon-Arrow" horiz-adv-x="1446" d="M722.818-64c-60.94 0-119.236 26.51-159.701 73.047l-507.414 580.037c-60.702 69.518-72.866 168.164-31.194 251.563 36.734 73.614 109.841 119.353 190.898 119.353h1014.827c81.059 0 154.16-45.739 190.898-119.353 41.671-83.399 29.509-182.045-31.075-251.449l-507.531-580.151c-40.472-46.538-98.762-73.047-159.708-73.047z" />
<glyph unicode="&#xe942;" glyph-name="facebook" horiz-adv-x="555" d="M154.432 381.999c-3.861 0-88.798 0-127.406 0-20.591 0-27.026 7.689-27.026 26.914 0 51.264 0 103.808 0 155.072 0 20.506 7.722 26.914 27.026 26.914h127.406c0 3.845 0 78.178 0 112.781 0 51.264 9.009 99.965 34.747 144.821 27.026 46.138 65.634 76.896 114.537 94.839 32.173 11.534 64.346 16.661 99.093 16.661h126.121c18.014 0 25.737-7.69 25.737-25.632v-146.103c0-17.943-7.723-25.632-25.737-25.632-34.748 0-69.495 0-104.243-1.282-34.747 0-52.764-16.661-52.764-52.546-1.287-38.448 0-75.614 0-115.344h149.285c20.591 0 28.309-7.689 28.309-28.195v-155.074c0-20.506-6.434-26.914-28.309-26.914-46.332 0-145.424 0-149.285 0v-417.801c0-21.79-6.435-29.478-29.6-29.478-54.051 0-106.815 0-160.866 0-19.304 0-27.025 7.689-27.025 26.914 0 134.566 0 415.241 0 419.085z" />
<glyph unicode="&#xe943;" glyph-name="Fackbook" horiz-adv-x="597" d="M377.968-64v467.059h156.71l23.509 182.077h-180.219v116.229c0 52.698 14.574 88.612 90.231 88.612l96.333 0.040v162.855c-16.657 2.165-73.847 7.129-140.406 7.129-138.988 0-234.141-84.837-234.141-240.602v-134.262h-157.185v-182.077h157.185v-467.059h187.983z" />
<glyph unicode="&#xe944;" glyph-name="Favaret" horiz-adv-x="1170" d="M543.759-17.301c10.937-11.059 25.858-17.198 41.36-17.198 15.56 0 30.418 6.139 41.418 17.14l454.427 455.188c119.106 119.34 119.106 313.502-0.059 432.842-57.505 57.564-134.315 89.329-216.098 89.329-81.9 0-158.652-31.766-216.215-89.388l-63.473-63.531-63.473 63.59c-57.506 57.564-134.317 89.329-216.158 89.329s-158.593-31.766-216.158-89.329c-119.106-119.34-119.106-313.502 0-432.842l454.429-455.129zM172.109 787.951c35.451 35.509 82.836 55.048 133.38 55.048 50.603 0 97.929-19.539 133.38-54.99l104.832-105.066c21.996-22.055 60.84-22.055 82.837 0l104.833 105.008c70.9 70.96 195.857 71.077 266.757 0 73.655-73.71 73.655-193.694 0-267.521l-413.008-413.651-412.951 413.651c-73.652 73.827-73.652 193.811-0.059 267.521z" />
<glyph unicode="&#xe945;" glyph-name="Filter" d="M1024 89.634c0-13.577-5.393-26.598-14.997-36.203-9.6-9.6-22.622-14.993-36.203-14.993h-470.221c-10.428-29.926-29.909-55.863-55.744-74.223-25.835-18.355-56.742-28.215-88.435-28.215s-62.601 9.86-88.436 28.215c-25.835 18.359-45.317 44.297-55.744 74.223h-163.021c-13.579 0-26.602 5.393-36.204 14.993-9.602 9.604-14.996 22.626-14.996 36.203s5.394 26.598 14.996 36.198c9.602 9.604 22.625 14.997 36.204 14.997h163.021c10.427 29.926 29.909 55.863 55.744 74.219 25.835 18.359 56.743 28.22 88.436 28.22s62.601-9.86 88.435-28.22c25.835-18.355 45.316-44.292 55.744-74.219h470.221c13.581 0 26.603-5.393 36.203-14.997 9.604-9.6 14.997-22.622 14.997-36.198zM972.8 499.196h-111.821c-10.428 29.926-29.909 55.865-55.744 74.221s-56.742 28.217-88.435 28.217c-31.693 0-62.601-9.862-88.435-28.217s-45.316-44.294-55.744-74.221h-521.421c-13.579 0-26.602-5.393-36.204-14.997-9.602-9.6-14.996-22.622-14.996-36.198s5.394-26.598 14.996-36.198c9.602-9.604 22.625-14.997 36.204-14.997h521.421c10.428-29.926 29.909-55.863 55.744-74.219 25.835-18.359 56.742-28.22 88.435-28.22s62.601 9.86 88.435 28.22c25.835 18.355 45.316 44.292 55.744 74.219h111.821c13.581 0 26.603 5.393 36.203 14.997 9.604 9.6 14.997 22.622 14.997 36.198s-5.393 26.598-14.997 36.198c-9.6 9.604-22.622 14.997-36.203 14.997zM51.2 755.171h265.421c10.427-29.926 29.909-55.866 55.744-74.221s56.743-28.218 88.436-28.218c31.693 0 62.601 9.862 88.435 28.218s45.316 44.295 55.744 74.221h367.821c13.581 0 26.603 5.394 36.203 14.995 9.604 9.601 14.997 22.623 14.997 36.201s-5.393 26.599-14.997 36.2c-9.6 9.601-22.622 14.995-36.203 14.995h-367.821c-10.428 29.926-29.909 55.866-55.744 74.221s-56.742 28.217-88.435 28.217c-31.693 0-62.601-9.862-88.436-28.217s-45.317-44.295-55.744-74.221h-265.421c-13.579 0-26.602-5.393-36.204-14.995s-14.996-22.622-14.996-36.2c0-13.578 5.394-26.6 14.996-36.201s22.625-14.995 36.204-14.995z" />
<glyph unicode="&#xe946;" glyph-name="google-1" d="M0 448c0 282.317 229.683 512 512 512 114.018 0 221.939-36.684 312.094-106.086l-118.976-154.556c-55.744 42.91-122.526 65.594-193.118 65.594-174.767 0-316.952-142.185-316.952-316.952s142.185-316.954 316.952-316.954c140.762 0 260.378 92.224 301.602 219.43h-301.602v195.047h512v-97.524c0-282.317-229.683-512-512-512s-512 229.683-512 512z" />
<glyph unicode="&#xe947;" glyph-name="Gride-View" d="M353.584 960h-235.168c-65.294 0-118.416-53.122-118.416-118.416v-235.168c0-65.294 53.122-118.416 118.416-118.416h235.168c65.294 0 118.416 53.122 118.416 118.416v235.168c0 65.294-53.122 118.416-118.416 118.416zM392 606.416c0-21.182-17.234-38.416-38.416-38.416h-235.168c-21.182 0-38.416 17.234-38.416 38.416v235.168c0 21.182 17.234 38.416 38.416 38.416h235.168c21.182 0 38.416-17.234 38.416-38.416v-235.168zM904 960h-232c-66.167 0-120-53.832-120-120v-232c0-66.168 53.833-120 120-120h232c66.167 0 120 53.832 120 120v232c0 66.168-53.833 120-120 120zM944 608c0-22.056-17.946-40-40-40h-232c-22.054 0-40 17.944-40 40v232c0 22.056 17.946 40 40 40h232c22.054 0 40-17.944 40-40v-232zM353.584 408h-235.168c-65.294 0-118.416-53.12-118.416-118.417v-235.166c0-65.297 53.122-118.417 118.416-118.417h235.168c65.294 0 118.416 53.12 118.416 118.417v235.166c0 65.297-53.122 118.417-118.416 118.417zM392 54.417c0-21.184-17.234-38.417-38.416-38.417h-235.168c-21.182 0-38.416 17.233-38.416 38.417v235.166c0 21.184 17.234 38.417 38.416 38.417h235.168c21.182 0 38.416-17.233 38.416-38.417v-235.166zM904 408h-232c-66.167 0-120-53.833-120-120v-232c0-66.167 53.833-120 120-120h232c66.167 0 120 53.833 120 120v232c0 66.167-53.833 120-120 120zM944 56c0-22.054-17.946-40-40-40h-232c-22.054 0-40 17.946-40 40v232c0 22.054 17.946 40 40 40h232c22.054 0 40-17.946 40-40v-232z" />
<glyph unicode="&#xe948;" glyph-name="Info" d="M512 960c-282.313 0-512-229.687-512-512s229.687-512 512-512c282.313 0 512 229.687 512 512s-229.687 512-512 512zM545.306 144.218c-24.324-4.058-72.725-14.182-97.306-16.218-20.804-1.724-40.437 10.185-52.405 27.281-5.908 8.422-9.697 18.146-11.046 28.348s-0.219 20.574 3.296 30.246l96.781 266.125h-100.625c-0.086 55.451 41.508 96.225 94.708 111.873 25.387 7.47 72.687 17.691 97.293 16.125 14.741-0.937 40.435-10.186 52.403-27.282 5.909-8.424 9.698-18.148 11.051-28.348 1.348-10.2 0.218-20.574-3.298-30.247l-96.781-266.125h100.595c0.017-55.386-40.026-102.673-94.665-111.778zM576 639.999c-35.349 0-64 28.657-64 64.001 0 35.347 28.651 64 64 64 35.345 0 64-28.653 64-64 0-35.345-28.651-64.001-64-64.001z" />
<glyph unicode="&#xe949;" glyph-name="Left-Arrow" horiz-adv-x="512" d="M426.326-64c-21.358 0-42.569 9.289-57.052 27.285l-353.135 438.869c-21.797 27.14-21.504 65.907 0.805 92.676l365.716 438.874c25.819 31.014 71.971 35.183 103.057 9.363 31.014-25.82 35.183-71.975 9.289-102.989l-327.313-392.864 315.61-392.209c25.31-31.45 20.335-77.534-11.187-102.839-13.461-10.901-29.696-16.166-45.789-16.166z" />
<glyph unicode="&#xe94a;" glyph-name="Linkdin1" d="M1024-64v375.040c0 184.32-39.68 325.12-254.72 325.12-103.68 0-172.8-56.32-200.96-110.080h-2.56v93.44h-203.52v-683.52h212.48v339.2c0 89.6 16.64 175.36 126.72 175.36 108.8 0 110.080-101.12 110.080-180.48v-332.8h212.48v-1.28zM16.64 619.52h212.48v-683.52h-212.48v683.52zM122.88 960c-67.84 0-122.88-55.040-122.88-122.88s55.040-124.16 122.88-124.16c67.84 0 122.88 56.32 122.88 124.16s-55.040 122.88-122.88 122.88z" />
<glyph unicode="&#xe94b;" glyph-name="List-View" d="M68.267-64c-37.649 0-68.267 32.188-68.267 71.765v84.143c0 39.578 30.618 71.761 68.267 71.761h80.077c37.649 0 68.267-32.183 68.267-71.761v-84.143c0-39.578-30.618-71.765-68.267-71.765h-80.077zM378.061-21.909c-37.649 0-68.267 32.183-68.267 71.761s30.618 71.765 68.267 71.765h577.673c37.649 0 68.267-32.188 68.267-71.765s-30.618-71.761-68.267-71.761h-577.673zM68.267 334.148c-37.649 0-68.267 32.183-68.267 71.761v84.181c0 39.578 30.618 71.763 68.267 71.763h80.077c37.649 0 68.267-32.185 68.267-71.763v-84.181c0-39.578-30.618-71.761-68.267-71.761h-80.077zM378.061 376.235c-37.649 0-68.267 32.188-68.267 71.765s30.618 71.765 68.267 71.765h577.673c37.649 0 68.267-32.188 68.267-71.765s-30.618-71.765-68.267-71.765h-577.673zM68.267 732.329c-37.649 0-68.267 32.186-68.267 71.764v84.143c0 39.578 30.618 71.764 68.267 71.764h80.077c37.649 0 68.267-32.186 68.267-71.764v-84.143c0-39.578-30.618-71.764-68.267-71.764h-80.077zM378.061 774.383c-37.649 0-68.267 32.186-68.267 71.764s30.618 71.764 68.267 71.764h577.673c37.649 0 68.267-32.186 68.267-71.764s-30.618-71.764-68.267-71.764h-577.673z" />
<glyph unicode="&#xe94c;" glyph-name="Pagination-Arrow-Left" horiz-adv-x="1170" d="M1097.143 521.15h-867.84l265.728 318.903c25.893 31.013 21.65 77.166-9.362 102.985-31.086 25.893-77.166 21.65-102.985-9.362l-365.714-438.857c-2.853-3.438-4.315-7.461-6.437-11.264-1.755-3.072-3.877-5.705-5.193-9.070-3.291-8.413-5.266-17.264-5.266-26.187 0-0.073-0.073-0.219-0.073-0.293s0.073-0.219 0.073-0.293c0-8.923 1.975-17.774 5.266-26.185 1.317-3.365 3.438-5.998 5.193-9.070 2.121-3.803 3.584-7.826 6.437-11.264l365.714-438.857c14.482-17.335 35.255-26.331 56.174-26.331 16.53 0 33.134 5.559 46.811 16.969 31.013 25.819 35.255 71.973 9.362 102.985l-265.728 318.903h867.84c40.375 0 73.143 32.768 73.143 73.143 0 40.377-32.768 73.145-73.143 73.145z" />
<glyph unicode="&#xe94d;" glyph-name="Pagination-Arrow-Right" horiz-adv-x="1170" d="M73.143 521.15h867.84l-265.728 318.903c-25.893 31.013-21.65 77.166 9.362 102.985 31.086 25.893 77.166 21.65 102.985-9.362l365.714-438.857c2.853-3.438 4.315-7.461 6.437-11.264 1.755-3.072 3.877-5.705 5.193-9.070 3.291-8.413 5.266-17.264 5.266-26.187 0-0.073 0.073-0.219 0.073-0.293s-0.073-0.219-0.073-0.293c0-8.923-1.975-17.774-5.266-26.185-1.317-3.365-3.438-5.998-5.193-9.070-2.121-3.803-3.584-7.826-6.437-11.264l-365.714-438.857c-14.482-17.335-35.255-26.331-56.174-26.331-16.53 0-33.134 5.559-46.811 16.969-31.013 25.819-35.255 71.973-9.362 102.985l265.728 318.903h-867.84c-40.375 0-73.143 32.768-73.143 73.143 0 40.377 32.768 73.145 73.143 73.145z" />
<glyph unicode="&#xe94e;" glyph-name="Pricing" d="M1023.642 763.867c0-155.623-67.844-268.686-70.699-273.401-2.065-3.405-4.787-6.37-8.004-8.725-3.213-2.351-6.865-4.049-10.735-4.992-3.874-0.943-7.893-1.109-11.831-0.499-3.938 0.614-7.714 1.997-11.119 4.070-6.891 4.177-11.844 10.914-13.769 18.739s-0.666 16.098 3.507 22.993c0.631 1.028 61.858 103.945 61.858 241.815 0 78.624-51.119 135.69-121.579 135.69-32.243-0.032-63.155-12.856-85.952-35.659s-35.61-53.719-35.631-85.962c0-28.573 13.833-101.173 19.14-126.734 1.259-7.735-0.512-15.658-4.949-22.118-4.433-6.461-11.191-10.962-18.863-12.565s-15.663-0.186-22.315 3.956c-6.652 4.143-11.452 10.692-13.397 18.284-2.099 10.026-20.484 99.152-20.484 139.177 0.060 48.366 19.307 94.733 53.508 128.929 34.206 34.197 80.576 53.431 128.943 53.483 103.945 0 182.37-84.45 182.37-196.481zM846.421 716.035c12.087-101.014 29.602-297.85 9.472-317.903l-441.705-441.745c-6.462-6.468-14.137-11.597-22.583-15.095s-17.501-5.299-26.644-5.295c-9.143 0.004-18.196 1.809-26.64 5.316-8.444 3.503-16.114 8.64-22.571 15.113l-295.355 295.317c-6.466 6.46-11.595 14.135-15.094 22.579s-5.301 17.498-5.301 26.641c0 9.139 1.801 18.193 5.301 26.637s8.628 16.119 15.094 22.579l441.745 441.707c7.014 7.014 83.418 7.331 169.335 2.853-0.478-5.667-1.707-11.017-1.707-16.803 0-22.034 4.877-56.194 9.988-86.233-7.296-10.828-11.955-23.215-13.602-36.169-1.643-12.954-0.23-26.112 4.13-38.42s11.546-23.422 20.979-32.451c9.434-9.029 20.851-15.721 33.34-19.539 12.484-3.818 25.694-4.655 38.562-2.446s25.041 7.406 35.541 15.17c10.496 7.765 19.029 17.882 24.909 29.541s8.947 24.533 8.951 37.591c0 28.414-14.229 53.459-35.904 68.518-4.442 26.432-8.004 51.953-8.004 64.437 0 2.695 0.555 5.191 0.789 7.846 10.581-1.11 21.005-2.259 30.874-3.487 58.372-7.173 58.965-7.054 66.099-66.26zM610.987 385.451c-6.857 19.059-18.27 41.924-43.038 68.241l33.527 33.566-37.333 37.291-36.181-36.224c-48.427 33.173-98.359 30.477-132.24-3.405-36.934-36.937-28.216-83.819-1.11-138.308 18.626-37.726 22.033-59.443 7.569-73.907-14.861-14.861-38.836-8.401-60.593 13.316-24.729 24.73-39.233 55.283-46.445 80.051l-56.035-33.212c6.499-22.43 24.015-54.409 48.744-80.721l-36.538-36.578 37.291-37.333 39.273 39.236c51.795-36.54 104.026-31.625 137.907 2.257 34.675 34.756 37.73 73.591 8.009 135.292-20.608 44.228-25.562 65.946-13.355 78.11 10.697 10.701 29.722 13.751 54.49-11.017 27.46-27.46 36.574-54.131 41.532-68.241l54.528 31.586z" />
<glyph unicode="&#xe94f;" glyph-name="Radio-Button-Active" d="M512-64c-282.778 0-512 229.222-512 512s229.222 512 512 512c282.778 0 512-229.222 512-512s-229.222-512-512-512zM512 38.4c53.794 0 107.059 10.594 156.757 31.181s94.857 50.761 132.894 88.798c38.033 38.033 68.207 83.191 88.794 132.89s31.181 102.963 31.181 156.757c0 53.794-10.594 107.059-31.181 156.757s-50.761 94.855-88.794 132.892c-38.037 38.037-83.196 68.21-132.894 88.796s-102.963 31.181-156.757 31.181c-108.64 0-212.829-43.157-289.649-119.977s-119.977-181.009-119.977-289.649c0-108.638 43.157-212.83 119.977-289.647 76.82-76.821 181.009-119.979 289.649-119.979zM512 192c-67.895 0-133.010 26.97-181.019 74.982-48.009 48.009-74.981 113.122-74.981 181.018s26.971 133.010 74.981 181.019c48.009 48.009 113.124 74.981 181.019 74.981s133.009-26.971 181.018-74.981c48.013-48.009 74.982-113.124 74.982-181.019s-26.97-133.009-74.982-181.018c-48.009-48.013-113.122-74.982-181.018-74.982z" />
<glyph unicode="&#xe950;" glyph-name="Radio-Button-deactive" d="M512.004 38.409c76.646 0 146.125 17.92 208.384 53.914 61.645 34.709 112.593 85.658 147.298 147.298 35.994 62.874 53.914 132.352 53.914 208.38 0 76.646-17.92 146.124-53.914 208.382-34.364 61.904-85.397 112.934-147.298 147.299-62.259 35.993-131.738 53.913-208.384 53.913-76.032 0-145.509-17.92-208.382-53.913-61.648-34.704-112.597-85.652-147.301-147.299-35.993-62.258-53.913-131.735-53.913-208.382 0-76.028 17.92-145.506 53.913-208.38 35.046-61.385 85.913-112.252 147.301-147.298 62.873-35.994 132.35-53.914 208.382-53.914zM512.004-63.987c-90.191-0.555-178.892 23.010-256.919 68.245-77.399 45.077-141.774 109.466-186.827 186.88-45.229 78.012-68.792 166.69-68.249 256.862 0 92.826 22.733 178.431 68.249 256.919 44.943 77.26 109.384 141.365 186.878 185.903 77.826 45.781 166.577 69.68 256.868 69.17 92.826 0 178.432-23.040 256.922-69.119 77.5-44.61 141.67-109.129 185.852-186.876 46.182-78.437 69.222-163.785 69.222-255.997 0-92.207-23.040-177.865-69.12-256.862-44.727-77.679-109.197-142.153-186.876-186.88-77.67-45.295-166.089-68.868-256-68.245z" />
<glyph unicode="&#xe951;" glyph-name="Rating-Star" horiz-adv-x="983" d="M972.669 531.218l-215.429-220.365 50.876-311.239c1.090-6.672 0.377-13.533-2.056-19.808-2.433-6.271-6.488-11.702-11.706-15.684-5.222-3.977-11.399-6.345-17.838-6.832-6.435-0.487-12.874 0.922-18.584 4.071l-266.371 146.948-266.339-146.911c-5.711-3.15-12.15-4.563-18.586-4.076-6.436 0.492-12.614 2.859-17.835 6.836-5.221 3.981-9.277 9.413-11.708 15.684-2.432 6.275-3.144 13.136-2.054 19.808l50.874 311.239-215.463 220.328c-4.625 4.727-7.896 10.719-9.443 17.297s-1.308 13.48 0.689 19.923c1.998 6.443 5.674 12.171 10.613 16.535s10.944 7.19 17.335 8.158l297.741 45.364 133.152 283.149c11.653 24.787 50.389 24.787 62.046 0l133.149-283.149 297.742-45.364c6.373-0.993 12.362-3.833 17.285-8.2 4.919-4.367 8.585-10.088 10.58-16.52s2.241-13.321 0.709-19.891c-1.532-6.57-4.78-12.562-9.38-17.302z" />
<glyph unicode="&#xe952;" glyph-name="Remove" d="M588.22 448l419.998 419.996c21.043 21.048 21.043 55.172 0 76.218-21.052 21.048-55.177 21.048-76.224 0l-419.994-419.994-419.996 419.994c-21.048 21.048-55.172 21.048-76.218 0s-21.048-55.172 0-76.218l419.994-419.996-419.994-419.994c-21.048-21.047-21.048-55.172 0-76.22s55.172-21.043 76.218 0l419.996 419.998 419.994-419.998c21.047-21.047 55.172-21.043 76.22 0 21.043 21.052 21.043 55.172 0 76.22l-419.994 419.994z" />
<glyph unicode="&#xe953;" glyph-name="Right-Aroow" horiz-adv-x="512" d="M85.674-64c21.358 0 42.569 9.289 57.052 27.285l353.134 438.869c21.798 27.14 21.504 65.907-0.802 92.676l-365.717 438.874c-25.819 31.014-71.973 35.183-103.058 9.363-31.013-25.82-35.182-71.975-9.289-102.989l327.315-392.864-315.612-392.209c-25.307-31.45-20.334-77.534 11.191-102.839 13.458-10.901 29.696-16.166 45.787-16.166z" />
<glyph unicode="&#xe954;" glyph-name="Search" d="M450.944 960c-248.643 0-450.944-202.302-450.944-450.948 0-248.661 202.301-450.948 450.944-450.948 248.661 0 450.948 202.287 450.948 450.948 0 248.646-202.287 450.948-450.948 450.948zM450.944 141.355c-202.743 0-367.692 164.949-367.692 367.693 0 202.748 164.949 367.7 367.692 367.7 202.748 0 367.697-164.95 367.697-367.696 0-202.748-164.949-367.697-367.697-367.697zM1011.806 7.057l-238.656 238.656c-16.26 16.26-42.598 16.26-58.859 0-16.265-16.247-16.265-42.611 0-58.859l238.652-238.66c3.861-3.87 8.448-6.942 13.5-9.033 5.052-2.095 10.466-3.17 15.932-3.162 5.466-0.004 10.88 1.071 15.932 3.162 5.052 2.095 9.638 5.163 13.5 9.033 16.26 16.252 16.26 42.615 0 58.863z" />
<glyph unicode="&#xe955;" glyph-name="Share-Icon" horiz-adv-x="939" d="M906.662 789.336c0-76.586-62.076-138.672-138.662-138.672s-138.662 62.086-138.662 138.672c0 76.578 62.076 138.664 138.662 138.664s138.662-62.086 138.662-138.664zM768 618.664c-94.127 0-170.662 76.546-170.662 170.672 0 94.118 76.54 170.664 170.662 170.664s170.662-76.546 170.662-170.664c0-94.126-76.54-170.672-170.662-170.672zM768 896c-58.837 0-106.662-47.876-106.662-106.664 0-58.796 47.825-106.672 106.662-106.672s106.662 47.876 106.662 106.672c0 58.788-47.825 106.664-106.662 106.664zM906.662 106.662c0-76.578-62.076-138.662-138.662-138.662s-138.662 62.084-138.662 138.662c0 76.587 62.076 138.675 138.662 138.675s138.662-62.089 138.662-138.675zM768-64c-94.127 0-170.662 76.544-170.662 170.662 0 94.127 76.54 170.675 170.662 170.675s170.662-76.548 170.662-170.675c0-94.118-76.54-170.662-170.662-170.662zM768 213.338c-58.837 0-106.662-47.876-106.662-106.675 0-58.79 47.825-106.662 106.662-106.662s106.662 47.876 106.662 106.662c0 58.799-47.825 106.675-106.662 106.675zM309.336 448c0-76.587-62.086-138.662-138.672-138.662-76.578 0-138.664 62.076-138.664 138.662s62.086 138.664 138.664 138.664c76.586 0 138.672-62.077 138.672-138.664zM170.664 277.338c-94.118 0-170.664 76.54-170.664 170.662 0 94.124 76.546 170.664 170.664 170.664 94.126 0 170.672-76.54 170.672-170.664s-76.546-170.662-170.672-170.662zM170.664 554.664c-58.836 0-106.664-47.869-106.664-106.664s47.828-106.662 106.664-106.662c58.844 0 106.672 47.868 106.672 106.662s-47.828 106.664-106.672 106.664zM271.407 468.476c-14.852 0-29.274 7.727-37.124 21.547-11.65 20.437-4.478 46.509 15.96 58.203l395.901 225.704c20.437 11.734 46.507 4.562 58.197-15.954 11.652-20.436 4.48-46.508-15.957-58.202l-395.907-225.704c-6.415-3.669-13.679-5.598-21.070-5.594zM667.268 116.476c-7.172 0-14.421 1.796-21.082 5.594l-395.901 225.702c-20.44 11.648-27.602 37.722-15.954 58.206 11.6 20.476 37.712 27.686 58.196 15.953l395.908-225.707c20.437-11.648 27.597-37.717 15.949-58.202-7.889-13.82-22.31-21.547-37.116-21.547v0z" />
<glyph unicode="&#xe956;" glyph-name="Support2" horiz-adv-x="1280" d="M188.374 927.994c-96.513 0-175.614-77.951-175.614-173.462v-260.603c0-95.51 79.101-173.79 175.614-173.79v-130.468c0.121-8.52 2.769-16.819 7.617-23.864s11.679-12.524 19.646-15.759c7.967-3.231 16.719-4.081 25.169-2.432s16.224 5.714 22.357 11.699l162.513 160.824h289.373c96.348 0 175.114 78.28 175.114 173.79v260.603c-0.128 45.937-18.616 89.957-51.42 122.456-32.809 32.497-77.276 50.834-123.694 51.007h-526.675zM188.374 841.016h526.675c49.249 0 87.89-37.745 87.89-86.485v-260.603c0-48.903-38.641-86.975-87.89-86.975h-307.448c-11.561-0.036-22.643-4.577-30.844-12.636l-100.659-99.779v68.925c0.044 11.505-4.521 22.559-12.696 30.74s-19.292 12.826-30.918 12.913h-44.11c-11.577-0.179-23.073 1.946-33.806 6.241-10.733 4.301-20.486 10.685-28.681 18.78s-14.666 17.734-19.029 28.347c-4.364 10.614-6.531 21.986-6.374 33.443v260.603c-0.158 11.442 2.011 22.799 6.378 33.395s10.844 20.214 19.043 28.282c8.2 8.069 17.955 14.423 28.687 18.685s22.22 6.344 33.781 6.122zM934.277 754.531v-86.977h131.502c49.418 0 87.89-37.909 87.89-86.813v-260.603c0-48.906-38.472-86.979-87.89-86.979h-43.781c-5.78 0.020-11.515-1.085-16.865-3.261s-10.214-5.376-14.316-9.416c-4.096-4.040-7.347-8.842-9.564-14.131-2.222-5.289-3.364-10.957-3.364-16.681v-68.598l-100.326 99.451c-8.218 8.161-19.369 12.769-31.012 12.8h-307.118c-15.396-0.154-30.555 3.763-43.909 11.351s-24.415 18.57-32.039 31.811h-19.402l-51.241-50.708c31.507-47.59 85.402-79.268 146.76-79.268h288.876l162.678-160.824c6.144-5.99 13.932-10.061 22.4-11.704 8.463-1.638 17.229-0.778 25.201 2.473 7.977 3.256 14.807 8.76 19.64 15.831s7.46 15.391 7.547 23.926v130.299c96.517 0 175.616 78.116 175.616 173.629v260.603c0 95.511-79.099 173.79-175.616 173.79h-131.666z" />
<glyph unicode="&#xe957;" glyph-name="Twitter" horiz-adv-x="1210" d="M735.116 942.378c52.317 19.586 109.461 22.931 163.747 9.608 44.074-10.818 84.634-32.225 118.090-62.178 42.673 15.104 83.102 35.757 120.199 61.423l26.484-38.277 45.172-11.216c-17.399-70.080-52.364-134.548-101.45-187.655 0.815-8.335 1.243-16.708 1.271-25.091v-0.157c0-303.126-148.759-524.785-361.402-635.8-211.405-110.369-481.737-109.265-722.953 22.179-18.984 10.347-28.345 32.4-22.601 53.239 5.745 20.843 25.084 34.988 46.687 34.141 88.478-3.449 176 14.289 255.184 51.098-78.349 46.485-134.403 101.995-173.126 161.964-50.616 78.392-69.779 161.527-73.244 236.319-3.456 74.563 8.621 141.721 21.323 189.893 6.38 24.197 12.998 43.904 18.095 57.731 2.551 6.921 4.729 12.391 6.318 16.237 0.795 1.924 1.442 3.443 1.917 4.538l0.578 1.32 0.178 0.4 0.011 0.024c0.277 0.62 0.568 1.237 0.874 1.848l41.632-20.816 37.845 27.096c46.803-65.368 109.429-118.461 182.364-154.468 59.405-29.328 124.12-46.565 190.238-50.828v2.088c-0.689 55.333 15.937 109.467 47.523 155.101 31.637 45.713 76.721 80.65 129.047 100.239zM166.221 769.166c-10.153-41.103-18.749-94.808-16.057-152.884 2.881-62.17 18.628-128.445 58.458-190.131 39.663-61.426 105.058-121.19 211.961-167.792 15.616-6.805 26.265-21.602 27.764-38.568 1.5-16.97-6.39-33.401-20.569-42.84-59.374-39.531-124.697-68.673-193.095-86.63 165.96-44.432 333.195-25.903 469.461 45.233 180.857 94.422 311.366 283.615 311.394 553.198-0.042 10.91-1.117 21.794-3.202 32.516-3.016 15.465 1.997 31.404 13.321 42.359 14.229 13.762 27.141 28.641 38.633 44.448-15.388-5.947-31.037-11.273-46.909-15.961-17.32-5.115-36.031 0.248-48.012 13.759-24.241 27.34-56.576 46.84-92.695 55.705-36.129 8.866-74.166 6.63-108.921-6.382-34.751-13.009-64.433-36.113-85.141-66.035-20.699-29.909-31.474-65.227-30.981-101.185l0.009-0.636h-0.005v-49.804c0-25.245-20.126-45.889-45.363-46.531-96.745-2.46-192.648 18.582-279.175 61.3-60.191 29.716-114.568 69.291-160.876 116.861z" />
</font>
</defs>
</svg>
